WK綜合論壇, WK综合论坛

查看:6076 回復:13 發表於 2018-3-12 01:56:36
本主題由 212love 於 2018-3-8 23:52 解除高亮
累計簽到︰1382 天
連續簽到︰11 天
發表於 2018-3-7 16:13:32 | 顯示全部樓層 |閱讀模式

僵屍攻擊 Attack.of.the.Southern.Fried.Zombies., 2017.[MKV / 9.4G] [複製鏈接]

影視分享
分類: 電影
題材: 恐怖 
地區: 美國 
語言: 英语 
格式: MKV 
年份: 2017
資源: BT资源
1.jpg
' X/ z5 M+ ~. l2 l8 u
, g& J7 Q/ X1 J◎译  名 AttackoftheSouthernFriedZombies) R$ R/ g2 Y+ D; i; B: i' r

7 u! F6 a; |. {◎片  名 Kudzu Zombies: M6 N. G, Z3 f, a) n: f  s4 X" }

( |3 o4 d: a  e- S6 D. U3 q◎年  代 2017& w  N4 x+ P# l5 q

( r. X3 h% K& Z; Q  j◎产  地 美国5 q' j& v. y( Q( q( k; J

3 ]$ G9 W0 `7 L5 K0 {5 v7 O◎类  别 恐怖: V$ n, x3 Y! _' ?) e6 L
/ O+ Z% P' {# ?* I
◎语  言 英语
/ B; Q% G2 Q2 g7 ~8 D8 @# O# c, _
◎IMDb评分  7.0/10 from 17 users
' Z/ Z8 @" z4 L! A6 U
9 b) ?& L5 e. q% m' V$ F1 T4 D7 A0 a◎IMDb链接  http://www.imdb.com/title/tt5594444/
" |# z" ^" z! h/ a( [# W" b/ ^
3 {6 w) V; [4 x' T. h' h◎导  演 Mark Newton
6 k0 W( J" P7 I6 i; ?5 S5 K; t! b4 Q3 W
◎主  演 Megan Few
4 A5 m2 u- R, B% U8 i7 U* ^9 K' o2 \" C6 t3 Z
      Jeremy Sande
2 c  j) x9 \) a$ Q; a  B* N" W, V# r3 g6 o. V1 g# d/ E+ B4 ^
      Michael Joiner
2 {! w3 T& [- d2 |5 S
" K) ?  R/ W5 d# g/ M5 z
- `  Q9 `9 w# n1 ?, \
6 u- D( b$ |8 _) {( }◎简  介& g( P; @* s) B5 [* h/ T

, Q7 D; a' i6 k1 o8 A
3 h& ]; O3 {, v- J7 j# i$ Y
0 O' X& k( V- h9 s" [" v  Lonnie, a crop duster pilot, must lead a mismatched group of survivors to escape the deadly zombie horde after an experimental chemical, intended to control the invasive kudzu vine, transforms the citizens of Charleston, MS into zombies.
2 o2 ?( c0 L0 W( g! `0 r+ C1 W- g, c$ u" J) R( L

1 Q8 X. c$ f; Y0 A% ~; R& l( i( n4 ?
Video: F9 S' V5 n9 y+ A* j) N3 o
ID                                       : 1
8 d+ S  b5 i  C0 Z0 _3 k4 u  uFormat                                   : AVC; n* v. p) H' j4 R9 ^  u
Format/Info                              : Advanced Video Codec6 H. x1 Q4 o; I2 f
Format profile                           : High@L4.1( q4 q9 m/ U4 Z; r
Format settings                          : CABAC / 4 Ref Frames
+ [7 S0 C* M. \Format settings, CABAC                   : Yes( r* `# s$ F/ V( o' M
Format settings, ReFrames                : 4 frames  ~9 V/ ~! o+ i- N# b$ J1 x
Codec ID                                 : V_MPEG4/ISO/AVC
/ U- I6 w4 w6 G1 }6 E+ S1 l7 q* oDuration                                 : 1 h 23 min! X* k$ s) w$ r6 Q9 r/ ~
Bit rate                                 : 14.8 Mb/s
9 u. Y) x8 S$ g( Y! c* v, F. a4 }Width                                    : 1 920 pixels
, k. w' C7 a$ S4 C2 EHeight                                   : 1 080 pixels
! f7 f+ T  k' l% j2 T$ k; WDisplay aspect ratio                     : 16:9
. c5 F, `0 B8 i4 I$ r; P& @3 U. @Frame rate mode                          : Constant& ^9 b0 K' H- U0 e0 M+ S2 g
Frame rate                               : 23.976 (24000/1001) FPS
1 b  W. S2 p; E! LColor space                              : YUV* a, d) P$ W6 v& }' h
Chroma subsampling                       : 4:2:0
# c$ W8 Y. w2 M, _Bit depth                                : 8 bits$ K$ O1 Q; O/ k6 V1 [
Scan type                                : Progressive
4 x9 m7 E- B* r1 A' c6 EBits/(Pixel*Frame)                       : 0.298; U9 u7 x7 Y9 h3 S$ E2 L- L/ ^( L( h
Stream size                              : 8.61 GiB (91%)
& p: \" n# Q2 }7 j$ nWriting library                          : x264 core 149 r2771+45 509cceb 7mod [8-bit@all X86_64]
; Z' k  f2 n3 O$ }8 F! W3 U+ \Encoding settings                        : cabac=1 / ref=4 / deblock=1:-3:-3 / analyse=0x3:0x113 / me=umh / subme=10 / psy=1 / fade_compensate=0.00 / psy_rd=0.90:0.10 / mixed_ref=1 / me_range=48 / chroma_me=1 / trellis=2 / 8x8dct=1 / cqm=0 / deadzone=21,11 / fast_pskip=0 / chroma_qp_offset=-2 / threads=12 / lookahead_threads=2 / sliced_threads=0 / nr=0 / decimate=1 / interlaced=0 / bluray_compat=0 / constrained_intra=0 / fgo=0 / bframes=8 / b_pyramid=2 / b_adapt=2 / b_bias=0 / direct=3 / weightb=1 / open_gop=0 / weightp=2 / keyint=250 / keyint_min=23 / scenecut=40 / intra_refresh=0 / rc_lookahead=40 / rc=crf / mbtree=0 / crf=19.0000 / qcomp=0.70 / qpmin=0:0:0 / qpmax=69:69:69 / qpstep=4 / vbv_maxrate=35000 / vbv_bufsize=35000 / crf_max=0.0 / nal_hrd=none / filler=0 / ip_ratio=1.40 / pb_ratio=1.30 / aq=3:1.00 / aq-sensitivity=10.00 / aq-factor=1.00:1.00:1.00 / aq2=0 / aq3=2:[0.50:0.50]:[0.50:0.50]:[0.50:0.50]:[0.50:0.50] / aq3-sensitivity=10.00 / aq3-factor=[1.00:1.00]:[1.00:1.00]:[1.00:1.00] / aq3-boundary=192:64:24
$ u/ A& \' ]5 O, E% U5 bLanguage                                 : English
$ X. X, ^1 s& Z9 R' M4 O; Z5 NDefault                                  : Yes) k. E5 r, f; U
Forced                                   : No* Y: k% Z& L1 Z) _
Color range                              : Limited5 i* F$ i0 N; u3 k) y
Matrix coefficients                      : BT.709
" A' P" t4 k5 E( M1 j) m8 {6 M. S1 Y+ l0 O# |6 E# j" n
Audio% A! G% D4 r2 I) E
ID                                       : 2
- P: q1 H  o$ M8 G/ v1 ?# UFormat                                   : DTS& L/ {9 i1 c8 o1 E
Format/Info                              : Digital Theater Systems/ ?; Z1 t/ L$ |3 s9 Y+ q" }
Codec ID                                 : A_DTS
! [7 J. Z5 |7 J- K, p: A7 L$ yDuration                                 : 1 h 23 min
2 F( {* v1 D( h8 N" J% a& I+ ZBit rate mode                            : Constant
! o  S6 X& n! P* w+ fBit rate                                 : 1 509 kb/s
( m% x& L- O* T$ D: x: l4 y$ z: bChannel(s)                               : 6 channels) w( w: J2 h% v/ ~
Channel positions                        : Front: L C R, Side: L R, LFE
: {4 J$ n" I0 H1 |, p+ Z! c2 ?$ ESampling rate                            : 48.0 kHz
; y. H1 k: [8 K3 l$ bFrame rate                               : 93.750 FPS (512 SPF)& R( S; f$ [+ S! j" s
Bit depth                                : 24 bits3 G2 n3 Q& v& v5 {8 G
Compression mode                         : Lossy) Z$ U% c) v( `5 u! M
Stream size                              : 898 MiB (9%)
8 J; Y6 Z" Z. w, W9 hLanguage                                 : English
/ \4 `! D5 k. S9 nDefault                                  : Yes# k* l* I9 [0 D0 |# B: l# x
Forced                                   : No

4 X2 h9 J( ]# Z1 z* _
: `. ?" K/ V" K! Q0 W3 I2 A/ }3 |6 N% f/ G* V' Z" t( I! L

僵屍攻擊. MKV.torrent

95.48 KB, 下載次數: 712

尚未簽到

發表於 2018-3-7 16:14:35 | 顯示全部樓層
很讚的文章,謝謝咯!相信WK因為有你而更加精彩!
累計簽到︰1442 天
連續簽到︰34 天
發表於 2018-3-7 18:06:29 | 顯示全部樓層
這個我收藏了!謝謝分享!WK的資源越來越豐富,這少不了大大的辛勞!

尚未簽到

發表於 2018-3-8 03:24:01 來自手機 | 顯示全部樓層
感謝大大的辛勞分享!我會繼續在WK關注大大的文章!

尚未簽到

發表於 2018-3-8 13:51:41 | 顯示全部樓層
絕對的好貼!謝謝啊!逐字逐圖地看完這個帖子以後,我的心久久不能平靜,感恩啊!

尚未簽到

發表於 2018-3-10 00:12:14 | 顯示全部樓層
精妙絕倫的精品,感謝啊!期待你更多更好的創作哦!

尚未簽到

發表於 2018-3-10 15:50:52 | 顯示全部樓層
絕對的好貼!謝謝啊!逐字逐圖地看完這個帖子以後,我的心久久不能平靜,感恩啊!

尚未簽到

發表於 2018-3-10 18:18:52 | 顯示全部樓層
很讚的文章,謝謝咯!相信WK因為有你而更加精彩!
累計簽到︰840 天
連續簽到︰10 天
發表於 2018-3-10 23:26:44 | 顯示全部樓層
感謝大大的辛勞分享!我會繼續在WK關注大大的文章!

尚未簽到

發表於 2018-3-12 01:56:36 | 顯示全部樓層
偶像^^小生一直都在關注你的原創!小生對你之仰慕如滔滔江水連綿不絕!

回復樓主 親!! 早上好! 心底有WK、心情就會飛翔,心中要個希望、笑容就會清爽!

 分享同時學會感恩,一句感謝的話語,就是最大的支持!  歡迎交流討論
您需要登錄後才可以回帖 登錄 | 立即注册

本版積分規則

c重要聲明:本論壇是以即時上載言論的方式運作,WK論壇對所有言論的真實性、立場及版權等,不負任何法律責任。而一切言論只代表發佈者個人意見,並非本網站之立場,讀者及用戶務必自行判斷內容之真實性。 由於本論壇受到「即時上載言論」運作方式所規限,故不能完全監察所有言論,若讀者及用戶發現有內容出現「真實性、立場及版權」等問題,請聯絡我們:info@waikeung.net論壇有權刪除任何言論(刪除前或不會作事先警告及通知)| SiteMap[網站地圖]

發表新帖 返回頂部