WK綜合論壇, WK综合论坛

查看:6234 回復:13 發表於 2018-3-12 01:56:36
本主題由 212love 於 2018-3-8 23:52 解除高亮
累計簽到︰1542 天
連續簽到︰4 天
發表於 2018-3-7 16:13:32 | 顯示全部樓層 |閱讀模式

僵屍攻擊 Attack.of.the.Southern.Fried.Zombies., 2017.[MKV / 9.4G] [複製鏈接]

影視分享
分類: 電影
題材: 恐怖 
地區: 美國 
語言: 英语 
格式: MKV 
年份: 2017
資源: BT资源
1.jpg # u4 p' X4 z4 E1 p
( X* N. v- y4 v/ l% v2 X- I6 |8 Q
◎译  名 AttackoftheSouthernFriedZombies( J6 K$ p' E0 s; ~& y
5 q/ `0 W* L# w+ ?# ]- {2 x5 g
◎片  名 Kudzu Zombies
* i3 V* j( @3 k* |
6 Z& ?# m0 ?, |8 {6 |◎年  代 2017) Y2 N5 n2 {/ o9 S

) c- `6 Y6 c5 D+ ]6 H◎产  地 美国4 j( W7 K" b3 d
, Y- p2 Z9 R) i0 L
◎类  别 恐怖
6 c4 B8 P9 e8 y- g; r
+ Y2 S2 C' j' F/ G; }9 ~2 @' U◎语  言 英语8 P9 |. h- l) R: t* p& S

; s/ u4 V2 j$ I◎IMDb评分  7.0/10 from 17 users) w' i5 |9 P( [+ {

: p& I( {8 B* v0 {. y* p1 }◎IMDb链接  http://www.imdb.com/title/tt5594444/
& B2 O7 Y0 w3 T7 ]$ A$ j' h6 L) D) _0 E
◎导  演 Mark Newton
4 ~" f& \1 Y! x* E. \; G! ^+ H5 v# Z7 d) H1 L" _4 p; x
◎主  演 Megan Few* P9 N5 W( ~& {# k) p9 e( W; s
3 N2 u) a! R: E4 E% \2 H! y
      Jeremy Sande: y/ Y' `5 C* o5 o

7 r( B  I' x, ~      Michael Joiner- d( ?' a/ s3 Q( M! H

  T: h" G: Z6 y5 Y0 _9 ?: f/ n5 |4 H7 B! g9 }; p6 i' d  t# c

8 B2 u% i7 C- C% T( Y" K◎简  介+ d8 F* H( ?) G

, q; z6 I- s0 G( U, o1 K8 t
; y4 W+ p. ?9 l# y9 F* I! ?
+ l" c# K( _  }  @) Y3 A  Lonnie, a crop duster pilot, must lead a mismatched group of survivors to escape the deadly zombie horde after an experimental chemical, intended to control the invasive kudzu vine, transforms the citizens of Charleston, MS into zombies.
: k8 z: g0 ]1 }" p, X. a% k6 U% ?* Y7 k; f! d9 G. ]

1 T3 B, R- ~  Y/ U) y) m0 k: S) V: e) i
Video1 N$ u2 Z! t9 k. L7 z0 C0 V
ID                                       : 1+ r  r& ?) e: X1 t3 ~
Format                                   : AVC9 C. E& y" V7 L; G$ N* b1 {
Format/Info                              : Advanced Video Codec
% D/ |2 U: V5 p# Q1 |* S" WFormat profile                           : High@L4.1
5 p7 `% v  s$ g( i% HFormat settings                          : CABAC / 4 Ref Frames
& O/ L' a# a  W+ uFormat settings, CABAC                   : Yes
' {! T' B3 S( B0 m1 CFormat settings, ReFrames                : 4 frames! a/ {7 l* Y+ }$ R( o% K; z
Codec ID                                 : V_MPEG4/ISO/AVC
6 K8 x7 i- o' _$ UDuration                                 : 1 h 23 min
3 o8 p7 R8 p: n/ u7 s# `/ A0 ~Bit rate                                 : 14.8 Mb/s
. B+ G  f  Z3 g/ mWidth                                    : 1 920 pixels. {! o. n% b( i/ f* H
Height                                   : 1 080 pixels+ X; j9 c$ O9 M- d- H
Display aspect ratio                     : 16:9
# I# C5 X* k* _Frame rate mode                          : Constant
1 b; {( c# T. ~4 YFrame rate                               : 23.976 (24000/1001) FPS
2 f9 n5 w% _1 M0 [Color space                              : YUV
1 B3 y6 A; B! _% F# c( I7 E' T& V4 TChroma subsampling                       : 4:2:0' J! h( j# F8 j0 X
Bit depth                                : 8 bits
1 w6 ]  r5 C; @! X  U" s: QScan type                                : Progressive" w4 a1 k0 j+ A- I
Bits/(Pixel*Frame)                       : 0.298
9 t7 N4 ~; m% T/ v& a* Q- [Stream size                              : 8.61 GiB (91%)
5 b+ A8 R! h* K4 e1 ^/ RWriting library                          : x264 core 149 r2771+45 509cceb 7mod [8-bit@all X86_64]
% L, ]& N0 T& y0 f, D# z7 JEncoding settings                        : cabac=1 / ref=4 / deblock=1:-3:-3 / analyse=0x3:0x113 / me=umh / subme=10 / psy=1 / fade_compensate=0.00 / psy_rd=0.90:0.10 / mixed_ref=1 / me_range=48 / chroma_me=1 / trellis=2 / 8x8dct=1 / cqm=0 / deadzone=21,11 / fast_pskip=0 / chroma_qp_offset=-2 / threads=12 / lookahead_threads=2 / sliced_threads=0 / nr=0 / decimate=1 / interlaced=0 / bluray_compat=0 / constrained_intra=0 / fgo=0 / bframes=8 / b_pyramid=2 / b_adapt=2 / b_bias=0 / direct=3 / weightb=1 / open_gop=0 / weightp=2 / keyint=250 / keyint_min=23 / scenecut=40 / intra_refresh=0 / rc_lookahead=40 / rc=crf / mbtree=0 / crf=19.0000 / qcomp=0.70 / qpmin=0:0:0 / qpmax=69:69:69 / qpstep=4 / vbv_maxrate=35000 / vbv_bufsize=35000 / crf_max=0.0 / nal_hrd=none / filler=0 / ip_ratio=1.40 / pb_ratio=1.30 / aq=3:1.00 / aq-sensitivity=10.00 / aq-factor=1.00:1.00:1.00 / aq2=0 / aq3=2:[0.50:0.50]:[0.50:0.50]:[0.50:0.50]:[0.50:0.50] / aq3-sensitivity=10.00 / aq3-factor=[1.00:1.00]:[1.00:1.00]:[1.00:1.00] / aq3-boundary=192:64:24
, b. \+ _1 G+ b  m# VLanguage                                 : English
* e" m5 l: x3 cDefault                                  : Yes3 V; ?& V8 {( i# A
Forced                                   : No! {9 S5 c  \6 p4 \! B! |8 P
Color range                              : Limited( U; H- z' h. ^
Matrix coefficients                      : BT.709
6 v! d2 U2 D# D+ [
/ V* N& y1 n  IAudio& {/ p2 I) \& u
ID                                       : 2
# E; j4 H* _8 h4 V. pFormat                                   : DTS( M; B5 h! z: f# E. p
Format/Info                              : Digital Theater Systems5 r- P6 o* r/ K  q1 w
Codec ID                                 : A_DTS
% }% u) m& J2 aDuration                                 : 1 h 23 min
9 {( O9 v5 l* uBit rate mode                            : Constant. T4 {* D5 A7 `$ v
Bit rate                                 : 1 509 kb/s
# w" M4 U. D0 D8 @: zChannel(s)                               : 6 channels4 @' [/ b$ Q' H+ [& \
Channel positions                        : Front: L C R, Side: L R, LFE
) [. {/ ~. U4 BSampling rate                            : 48.0 kHz
+ v* a3 q- ~6 _7 Y' EFrame rate                               : 93.750 FPS (512 SPF)3 k9 L* @! ^9 E9 H7 v
Bit depth                                : 24 bits3 v5 e1 H1 K) i+ O8 R) V4 W
Compression mode                         : Lossy
: k7 K( N* l+ ]Stream size                              : 898 MiB (9%)( P+ n$ k+ T$ H7 M: q; V# H0 M# `" _
Language                                 : English5 f% Q" x& v1 B# J" |; H- L7 Z) g) z
Default                                  : Yes
% V1 f: o8 ?% s: C/ v% P! e! K- tForced                                   : No

3 }/ _7 ~/ ^6 q" l+ h! r( f9 C% @) z. V" a6 P) O
0 ?8 C4 h9 z+ y) U( n( n# _

僵屍攻擊. MKV.torrent

95.48 KB, 下載次數: 712

尚未簽到

發表於 2018-3-7 16:14:35 | 顯示全部樓層
很讚的文章,謝謝咯!相信WK因為有你而更加精彩!
累計簽到︰1608 天
連續簽到︰11 天
發表於 2018-3-7 18:06:29 | 顯示全部樓層
這個我收藏了!謝謝分享!WK的資源越來越豐富,這少不了大大的辛勞!

尚未簽到

發表於 2018-3-8 03:24:01 來自手機 | 顯示全部樓層
感謝大大的辛勞分享!我會繼續在WK關注大大的文章!

尚未簽到

發表於 2018-3-8 13:51:41 | 顯示全部樓層
絕對的好貼!謝謝啊!逐字逐圖地看完這個帖子以後,我的心久久不能平靜,感恩啊!

尚未簽到

發表於 2018-3-10 00:12:14 | 顯示全部樓層
精妙絕倫的精品,感謝啊!期待你更多更好的創作哦!

尚未簽到

發表於 2018-3-10 15:50:52 | 顯示全部樓層
絕對的好貼!謝謝啊!逐字逐圖地看完這個帖子以後,我的心久久不能平靜,感恩啊!

尚未簽到

發表於 2018-3-10 18:18:52 | 顯示全部樓層
很讚的文章,謝謝咯!相信WK因為有你而更加精彩!
累計簽到︰951 天
連續簽到︰4 天
發表於 2018-3-10 23:26:44 | 顯示全部樓層
感謝大大的辛勞分享!我會繼續在WK關注大大的文章!

尚未簽到

發表於 2018-3-12 01:56:36 | 顯示全部樓層
偶像^^小生一直都在關注你的原創!小生對你之仰慕如滔滔江水連綿不絕!

回復樓主 親!! 下午好,中午養足了精神嗎?讓我們一起渡過下午茶時間,WK有您更精彩!

 分享同時學會感恩,一句感謝的話語,就是最大的支持!  歡迎交流討論
您需要登錄後才可以回帖 登錄 | 立即注册

本版積分規則

c重要聲明:本論壇是以即時上載言論的方式運作,WK論壇對所有言論的真實性、立場及版權等,不負任何法律責任。而一切言論只代表發佈者個人意見,並非本網站之立場,讀者及用戶務必自行判斷內容之真實性。 由於本論壇受到「即時上載言論」運作方式所規限,故不能完全監察所有言論,若讀者及用戶發現有內容出現「真實性、立場及版權」等問題,請聯絡我們:info@waikeung.net論壇有權刪除任何言論(刪除前或不會作事先警告及通知)| SiteMap[網站地圖]

發表新帖 返回頂部