WK綜合論壇, WK综合论坛

查看:6191 回復:13 發表於 2018-3-12 01:56:36
本主題由 212love 於 2018-3-8 23:52 解除高亮
累計簽到︰1470 天
連續簽到︰17 天
發表於 2018-3-7 16:13:32 | 顯示全部樓層 |閱讀模式

僵屍攻擊 Attack.of.the.Southern.Fried.Zombies., 2017.[MKV / 9.4G] [複製鏈接]

影視分享
分類: 電影
題材: 恐怖 
地區: 美國 
語言: 英语 
格式: MKV 
年份: 2017
資源: BT资源
1.jpg 1 S  q/ J0 Y) ?$ y
3 y0 r6 y8 H3 n2 g+ m/ Y4 c
◎译  名 AttackoftheSouthernFriedZombies
# I6 H8 D$ x) }5 E3 U" [; i+ [8 L( T7 f  _! G  b  B( O: z
◎片  名 Kudzu Zombies
1 W0 G7 I8 Z$ n+ W
' l1 ]1 E: p: Y* G8 N◎年  代 2017
# L/ F; h+ m1 V+ Y2 W( L% @6 X" ~  l! t
◎产  地 美国0 M/ U  }% M5 ]4 R: _* w
+ Y$ {2 w8 s0 |& c3 }
◎类  别 恐怖
: K# F* |) E% H& }0 P2 Q" B9 \! R
8 Z) U1 v; C! ]◎语  言 英语
' x9 [% W& G/ g) q. e) k. J  |1 h, V7 H
◎IMDb评分  7.0/10 from 17 users* n8 u* n. J' Y7 f$ t* B

, X+ W  D- f+ x& ]) s% E5 m  W◎IMDb链接  http://www.imdb.com/title/tt5594444/7 c1 A* {9 k6 N- t0 F, \! A
3 }0 C: S( r; Z: X
◎导  演 Mark Newton
- B, V7 R0 [3 s
* ^7 J! |" {! f◎主  演 Megan Few: B8 w- T# c1 q9 F' y0 h% I

0 r; I: u; P6 }+ x9 W3 G! Z      Jeremy Sande% |, ^, Y/ {( O9 E% g
# W) N  ?3 {' O
      Michael Joiner
! \; n, p% l: L- W( L- c7 K+ |( G' s% {9 E
: \$ b7 T9 v2 w/ d6 [

! Z1 ?7 Q% T9 ]2 ]7 D1 r( r◎简  介
9 I# z- y% u& |& o% d- z" Q' y# V2 F8 z$ b

2 e$ \6 q# k& x& Z& e) y6 `
8 _+ _+ `3 X8 r! O( N9 d  T  Lonnie, a crop duster pilot, must lead a mismatched group of survivors to escape the deadly zombie horde after an experimental chemical, intended to control the invasive kudzu vine, transforms the citizens of Charleston, MS into zombies.  y, p  s5 c9 W8 L  O6 x! l  B

3 \" Q( g$ \" H1 u2 K! w9 R! \8 W1 M! v$ H. m  h* i
, @3 k) u" M# u6 s  x/ s
Video. e; f( o& @5 U
ID                                       : 1
. @$ M2 z5 p$ j5 T4 y& OFormat                                   : AVC
* V$ v: J1 I: e& ^3 h! GFormat/Info                              : Advanced Video Codec0 O4 Y9 @5 G0 c8 @
Format profile                           : High@L4.1
4 @, ~5 B' q, q# d5 F+ D6 h* tFormat settings                          : CABAC / 4 Ref Frames
3 G* k! g; a; R# n: tFormat settings, CABAC                   : Yes% ^. ?5 B8 L$ A) J+ t/ y( x
Format settings, ReFrames                : 4 frames2 U4 ^) d/ M8 v+ U" ]
Codec ID                                 : V_MPEG4/ISO/AVC
' E1 n6 G1 z7 g+ y- r- U% Z8 EDuration                                 : 1 h 23 min
. A; @( z; z/ D' BBit rate                                 : 14.8 Mb/s6 e  s: d$ @! T- @% \) t
Width                                    : 1 920 pixels+ {. c6 g+ n9 x* Z. k) u
Height                                   : 1 080 pixels6 q% a1 G. Z$ _" U
Display aspect ratio                     : 16:9
4 @3 J  f; ^) A/ A% k7 g+ P* p. [Frame rate mode                          : Constant
- V+ W6 w( K4 [! F' @1 JFrame rate                               : 23.976 (24000/1001) FPS0 f3 l) B9 O% a; J0 W5 I. Q- b. ~! h
Color space                              : YUV
3 x7 z7 y7 ?' t. L+ TChroma subsampling                       : 4:2:0/ Q: X+ l0 D: d% c' ]6 {
Bit depth                                : 8 bits3 w9 I; S" j$ w  B
Scan type                                : Progressive
% P# c! Z4 x! q8 J5 E" ~Bits/(Pixel*Frame)                       : 0.298
" ?2 Z/ j/ U9 wStream size                              : 8.61 GiB (91%); u. k- e; H& v6 n( _
Writing library                          : x264 core 149 r2771+45 509cceb 7mod [8-bit@all X86_64]
+ U. O' a  \9 V  k. h" |Encoding settings                        : cabac=1 / ref=4 / deblock=1:-3:-3 / analyse=0x3:0x113 / me=umh / subme=10 / psy=1 / fade_compensate=0.00 / psy_rd=0.90:0.10 / mixed_ref=1 / me_range=48 / chroma_me=1 / trellis=2 / 8x8dct=1 / cqm=0 / deadzone=21,11 / fast_pskip=0 / chroma_qp_offset=-2 / threads=12 / lookahead_threads=2 / sliced_threads=0 / nr=0 / decimate=1 / interlaced=0 / bluray_compat=0 / constrained_intra=0 / fgo=0 / bframes=8 / b_pyramid=2 / b_adapt=2 / b_bias=0 / direct=3 / weightb=1 / open_gop=0 / weightp=2 / keyint=250 / keyint_min=23 / scenecut=40 / intra_refresh=0 / rc_lookahead=40 / rc=crf / mbtree=0 / crf=19.0000 / qcomp=0.70 / qpmin=0:0:0 / qpmax=69:69:69 / qpstep=4 / vbv_maxrate=35000 / vbv_bufsize=35000 / crf_max=0.0 / nal_hrd=none / filler=0 / ip_ratio=1.40 / pb_ratio=1.30 / aq=3:1.00 / aq-sensitivity=10.00 / aq-factor=1.00:1.00:1.00 / aq2=0 / aq3=2:[0.50:0.50]:[0.50:0.50]:[0.50:0.50]:[0.50:0.50] / aq3-sensitivity=10.00 / aq3-factor=[1.00:1.00]:[1.00:1.00]:[1.00:1.00] / aq3-boundary=192:64:24
8 M* B. `4 B1 u/ P' T, R8 `Language                                 : English
" i$ p, B$ t- p$ u/ YDefault                                  : Yes
2 _! [4 a' S- kForced                                   : No' V* j/ t6 a, y, l& \
Color range                              : Limited
) B8 [; |# m7 C( `+ lMatrix coefficients                      : BT.709
% }$ P0 [/ V: ?) G  @; ?
9 N+ J& m# K3 P8 D  z" l2 G/ ?Audio
* D$ p4 F% C2 h, c: T2 I# F: N2 eID                                       : 2
: K0 }* d. K% j% ~) \  X9 k' [Format                                   : DTS
" ^: n' Z  G' HFormat/Info                              : Digital Theater Systems, r- E( j9 Q7 F  b6 M% f, S
Codec ID                                 : A_DTS! c; G9 ^; |5 f, U; Q% u: t- ?
Duration                                 : 1 h 23 min  m" S" H( d" S! C
Bit rate mode                            : Constant  d% ], p) Q( {. H- I0 r
Bit rate                                 : 1 509 kb/s7 d3 C) ]# ~) U
Channel(s)                               : 6 channels
7 L5 [) n# v4 o6 _- w$ p7 AChannel positions                        : Front: L C R, Side: L R, LFE: }& r5 C9 Y' R. ~/ n* h# I  T; C/ }+ A
Sampling rate                            : 48.0 kHz
0 M) s/ S6 h+ N% h8 n8 i% _/ XFrame rate                               : 93.750 FPS (512 SPF)
5 ~( N% ]& c5 I& ~Bit depth                                : 24 bits
( ]3 G7 }& T3 ?: N* qCompression mode                         : Lossy; Y* b5 o9 V! R, o
Stream size                              : 898 MiB (9%)* n9 b% }/ A% q) m- m7 \
Language                                 : English2 N6 l3 ]" A0 A4 ?7 @
Default                                  : Yes
. o# p: c4 m  B" e8 q/ GForced                                   : No
& s  |! x4 k2 G: M

7 {; C8 k5 |' L' l3 \5 N
: f/ [; w6 s/ z8 o( ?/ A$ p) [8 V

僵屍攻擊. MKV.torrent

95.48 KB, 下載次數: 712

尚未簽到

發表於 2018-3-7 16:14:35 | 顯示全部樓層
很讚的文章,謝謝咯!相信WK因為有你而更加精彩!
累計簽到︰1532 天
連續簽到︰42 天
發表於 2018-3-7 18:06:29 | 顯示全部樓層
這個我收藏了!謝謝分享!WK的資源越來越豐富,這少不了大大的辛勞!

尚未簽到

發表於 2018-3-8 03:24:01 來自手機 | 顯示全部樓層
感謝大大的辛勞分享!我會繼續在WK關注大大的文章!

尚未簽到

發表於 2018-3-8 13:51:41 | 顯示全部樓層
絕對的好貼!謝謝啊!逐字逐圖地看完這個帖子以後,我的心久久不能平靜,感恩啊!

尚未簽到

發表於 2018-3-10 00:12:14 | 顯示全部樓層
精妙絕倫的精品,感謝啊!期待你更多更好的創作哦!

尚未簽到

發表於 2018-3-10 15:50:52 | 顯示全部樓層
絕對的好貼!謝謝啊!逐字逐圖地看完這個帖子以後,我的心久久不能平靜,感恩啊!

尚未簽到

發表於 2018-3-10 18:18:52 | 顯示全部樓層
很讚的文章,謝謝咯!相信WK因為有你而更加精彩!
累計簽到︰914 天
連續簽到︰1 天
發表於 2018-3-10 23:26:44 | 顯示全部樓層
感謝大大的辛勞分享!我會繼續在WK關注大大的文章!

尚未簽到

發表於 2018-3-12 01:56:36 | 顯示全部樓層
偶像^^小生一直都在關注你的原創!小生對你之仰慕如滔滔江水連綿不絕!

回復樓主 親!! 現在是淩晨!妳失眠啦?餓啦?通宵加班?還是想WK啦?

 分享同時學會感恩,一句感謝的話語,就是最大的支持!  歡迎交流討論
您需要登錄後才可以回帖 登錄 | 立即注册

本版積分規則

c重要聲明:本論壇是以即時上載言論的方式運作,WK論壇對所有言論的真實性、立場及版權等,不負任何法律責任。而一切言論只代表發佈者個人意見,並非本網站之立場,讀者及用戶務必自行判斷內容之真實性。 由於本論壇受到「即時上載言論」運作方式所規限,故不能完全監察所有言論,若讀者及用戶發現有內容出現「真實性、立場及版權」等問題,請聯絡我們:info@waikeung.net論壇有權刪除任何言論(刪除前或不會作事先警告及通知)| SiteMap[網站地圖]

發表新帖 返回頂部